#TITLE:OH EM GEE 3!!!;
#SUBTITLE:;
#ARTIST:Macgravel/MrZombie;
#TITLETRANSLIT:;
#SUBTITLETRANSLIT:;
#ARTISTTRANSLIT:;
#CREDIT:;
#BANNER:OH EM GEE 3!!!.jpg;
#BACKGROUND:OH EM GEE 3!!!-bg.jpg;
#LYRICSPATH:;
#CDTITLE:!macTitle.png;
#MUSIC:OH EM GEE 3!!!.mp3;
#OFFSET:-0.020;
#SAMPLESTART:0.020;
#SAMPLELENGTH:12.000;
#SELECTABLE:YES;
#BPMS:0.000=170.000,177.750=640.005,178.000=639.995,230.500=170.001;
#STOPS:79.000=1.415
;
#BGCHANGES:;
// cache tags:
#FIRSTBEAT:0.000;
#LASTBEAT:238.500;
#SONGFILENAME:Songs/Music V.I.P ^_^/OH EM GEE 3!!!/OH EM GEE 3!!!.sm;
#HASMUSIC:1;
#HASBANNER:1;
#MUSICLENGTH:72.071;
// end cache tags

//---------------dance-single - ----------------
#NOTES:
     dance-single:
     :
     Hard:
     10:
     0.916,1.000,1.000,0.000,0.222,357.000,105.000,0.000,0.000,0.000:

1000
0001
1000
0010
1000
0100
0010
0001
,
0100
0010
0100
0001
1000
0010
1000
0100
,
0010
0001
0100
0010
0100
0001
0100
0010
,
0100
0001
1000
0100
1000
0010
1000
0100
,
0010
0000
0001
0000
0101
0000
0010
0100
0001
0000
1000
0000
1010
0000
0100
0000
,
1000
0000
0010
0000
0101
0000
0010
0100
0001
0000
0010
0000
0110
0000
0001
0000
,
1000
0000
0100
0000
1010
0000
0100
1000
0010
0000
1000
0000
1100
0000
0010
0000
,
0100
0000
0001
0000
0110
0000
0010
0100
0001
0000
0010
0000
1100
0000
0010
0000
,
1000
0000
0001
0000
1100
0000
0010
1000
0100
0000
1000
0000
1010
0000
0100
0000
,
0010
0000
0001
0000
0110
0000
0001
0100
0010
0000
0100
0000
0101
0000
0010
0000
,
1000
0000
0100
0000
1010
0000
0100
1000
0010
0000
1000
0000
0110
0000
0001
0000
,
1000
0000
0010
0000
1100
0000
0001
0100
0010
0000
1000
0000
0110
0000
0001
0000
,
0110
1100
1010
0110
,
0101
0101
0011
0011
,
1100
1100
1010
0011
,
0110
1010
1001
0101
,
1010
1001
0110
0000
0011
1100
0011
0000
,
1100
0011
1100
0000
0110
1001
0110
0000
,
1001
0110
1001
0000
0110
0101
1010
0000
,
0101
1010
0110
0000
1001
0110
1001
0000
,
1100
0010
1100
0010
0101
0010
1001
0100
,
1010
0001
0110
0001
0110
0001
1100
0010
,
1001
0100
1010
0001
0110
0001
0110
0010
,
0011
0100
1010
0001
0110
0001
0110
0001
,
1100
1000
1001
1000
0110
0100
0101
0010
,
0110
1000
1001
0100
0110
0010
0011
1000
,
1100
0010
0101
0100
0110
0001
1100
0010
,
0101
1000
1010
0100
0011
0100
1001
0100
,
0101
0000
0010
0000
1001
0000
0100
1000
0010
0000
1000
0000
0101
0000
0010
0000
,
0001
0000
0100
0000
0110
0000
0001
0010
0100
0000
0010
0000
0011
0000
0100
0000
,
1000
0000
0010
0000
1100
0000
0010
1000
0001
0000
0100
0000
0110
0000
0001
0000
,
0010
0000
0100
0000
0110
0000
0100
1000
0010
0000
1000
0000
1010
0000
0001
0000
,
0100
0000
0010
0000
0101
0000
0010
1000
0001
0000
1000
0000
1010
0000
0100
0000
,
1000
0000
0010
0000
0101
0000
0010
0100
0001
0000
0010
0000
0110
0000
0001
0000
,
0010
0000
0100
0000
0011
0000
0001
0010
0001
0000
0010
0000
0110
0000
0100
0000
,
1000
0000
0010
0000
1010
0000
0100
1000
0100
0000
1000
0000
0110
0000
1000
0000
,
0001
0000
1000
0010
0000
0000
1000
0000
,
0100
0000
0010
0001
0000
0100
0010
0100
,
0001
0000
1000
0010
0000
0001
1000
0010
,
0100
0000
0100
0010
0000
0100
0010
0100
,
0001
0000
0010
0100
0000
0000
0001
0000
,
0010
0000
0001
0100
0000
0100
0010
1000
,
0100
0000
0100
0010
0000
0010
0001
0100
,
0001
0000
0001
0100
0000
0100
0010
1000
,
0000
0000
0000
0000
,
0000
0000
0000
0000
,
0000
0000
0000
0000
,
0000
0000
0000
0000
,
0000
0000
0000
0000
,
0000
0000
0000
0000
,
0000
0000
0000
0000
,
0000
0000
0000
0000
,
0000
0000
0000
0000
,
0000
0000
0000
0000
,
0000
0000
0000
0000
,
0000
0000
0000
0000
,
0000
0000
0000
0000
,
0000
0000
0000
0000
0000
0000
0000
0000
0000
0000
0001
0010
0100
0010
0100
1000
,
0001
0100
0010
1000
0100
0010
0001
0100
0010
0100
0001
0010
0100
0010
0001
1000
,
0010
0100
0001
0100
0010
1000
0100
0010
0001
0010
0100
0000
0000
0000
0000
0000
;
